#WirSindZuhause, Erstsendung am 27.04.2020 12:00 – 13:00


Das ist die Playlist von heute, die Wiederholung startet am 28.04.2020 um Mitternacht 0:00 h.

TRACK 01 AUDIO
TITLE “Ein Tag Am Meer”
PERFORMER “Klangstein”
REM ALBUM “Cosmic Chill Lounge Vol. 4 (Beachclub Edition)”
INDEX 01 00:00:00
TRACK 02 AUDIO
TITLE “The_Liar_Tweets_Tonight”
INDEX 01 09:58:40
TRACK 03 AUDIO
TITLE “The Arecibo Message”
PERFORMER “Eagle”
INDEX 01 12:30:66
TRACK 04 AUDIO
TITLE “Against my skin”
PERFORMER “Liam Thomas”
REM ALBUM “Against my skin”
INDEX 01 18:56:16
TRACK 05 AUDIO
TITLE “Twilight Mist”
PERFORMER “Kuutana”
REM ALBUM “Rebirth”
INDEX 01 23:05:12
TRACK 06 AUDIO
TITLE “The Liar Tweets Tonight”
PERFORMER “Roy Zimmerman and The ReZisters”
INDEX 01 31:08:24
TRACK 07 AUDIO
TITLE “[01] Cine Visions”
PERFORMER “D-Echo Project”
REM ALBUM “Cine Visions”
INDEX 01 33:28:35
TRACK 08 AUDIO
TITLE “[07] Open Wit (Smooth Genestar Remix)”
PERFORMER “D-Echo Project”
REM ALBUM “Cine Visions”
INDEX 01 38:12:36
TRACK 09 AUDIO
TITLE “Beyond the Purple Sun”
PERFORMER “Jim Ottaway”
REM ALBUM “Beyond the Purple Sun”
INDEX 01 46:03:33
TRACK 10 AUDIO
TITLE “Automata”
PERFORMER “Yaary & Scholl”
REM ALBUM “Delta Evolution”
INDEX 01 54:35:11